[table=1661px][tr][td]◎译  名 外星人狙击战 / MFKZ / Mutafukaz◎片  名 ムタフカズ◎年  代 2017◎产  地 法国 / 日本◎类  别 动作 / 科幻 / 动画◎语  言 法语◎上映日期 2017-06-13(安锡动画片子节) / 2018-10-12(日本)◎IMDb评分 6.7/10 from 1548 users◎IMDb链接?http://www.imdb.com/title/tt4717402◎豆瓣评分 7.2/10 from 882 users◎豆瓣链接 https://movie.douban.com/subject/27109222/◎片  长 90分钟◎导  演 西见祥示郎 Shoujirou Nishimi / 吉劳姆.雷纳德 Guillaume Renard◎编  剧 巴尔吉特.拉伊 Baljeet Rai / 吉劳姆.雷纳德 Guillaume Renard◎主  演 克里斯.贾伊.阿历克斯 Chris Jai Alex      安东尼奥.阿尔瓦雷斯 Antonio Alvarez      迪诺.安德拉德 Dino Andrade      费奥多尔.阿特金 Féodor Atkine      迈克尔.切克利斯 Michael Chiklis      艾朗.多瓦尔 Alain Dorval      吉安卡罗.埃斯波西托 Giancarlo Esposito      伊尔琳.菲茨杰拉德 Erin Fitzgerald      桑迪.福克斯 Sandy Fox      韦恩.格雷森 Vinnie Penna      豪尔赫.R.古铁雷斯 Jorge R. Gutierrez◎标  签 动画 | 法国 | 日本 | 科幻 | 2017 | 奇幻 | 动漫 | 动作◎简  介?  故事背景设定在美国,生活在贫平易近区的Angelino与伙伴Vinz,展开了抵抗外星人的冒险故事。◎获奖情况?  第46届动画安妮奖(2019)  最佳自力动画长片(提名)
VideoID : 1Format : AVCFormat/Info : Advanced Video CodecFormat profile :?[url=mailto:[email protected]][email protected][/url]Format settings : CABAC / 5 Ref FramesFormat settings, CABAC : YesFormat settings, ReFrames : 5 framesCodec ID : V_MPEG4/ISO/AVCDuration : 1 h 34 minBit rate : 5 225 kb/sWidth : 1 920 pixelsHeight : 808 pixelsDisplay aspect ratio : 2.40:1Frame rate mode : ConstantFrame rate : 23.976 (24000/1001) FPSColor space : YUVChroma subsampling : 4:2:0Bit depth : 8 bitsScan type : ProgressiveBits/(Pixel*Frame) : 0.140Stream size : 3.46 GiB (63%)Writing library : x264 core 157 r2969 d4099ddEncoding settings : cabac=1 / ref=5 / deblock=1:-3:-3 / analyse=0x3:0x133 / me=umh / subme=9 / psy=1 / psy_rd=1.00:0.00 / mixed_ref=1 / me_range=16 / chroma_me=1 / trellis=2 / 8x8dct=1 / cqm=0 / deadzone=21,11 / fast_pskip=0 / chroma_qp_offset=-2 / threads=18 / lookahead_threads=1 / sliced_threads=0 / nr=0 / decimate=1 / interlaced=0 / bluray_compat=0 / constrained_intra=0 / bframes=3 / b_pyramid=2 / b_adapt=1 / b_bias=0 / direct=3 / weightb=1 / open_gop=0 / weightp=2 / keyint=240 / keyint_min=24 / scenecut=40 / intra_refresh=0 / rc_lookahead=50 / rc=2pass / mbtree=1 / bitrate=5225 / ratetol=1.0 / qcomp=0.60 / qpmin=0 / qpmax=69 / qpstep=4 / cplxblur=20.0 / qblur=0.5 / ip_ratio=1.40 / aq=1:1.00Language : EnglishDefault : YesForced : NoAudio #1ID : 2Format : DTSFormat/Info : Digital Theater SystemsCodec ID : A_DTSDuration : 1 h 34 minBit rate mode : ConstantBit rate : 1 509 kb/sChannel(s) : 6 channelsChannel layout : C L R Ls Rs LFESampling rate : 48.0 kHzFrame rate : 93.750 FPS (512 SPF)Bit depth : 24 bitsCompression mode : LossyStream size : 1.00 GiB (18%)Language : FrenchDefault : YesForced : NoAudio #2ID : 3Format : DTSFormat/Info : Digital Theater SystemsCodec ID : A_DTSDuration : 1 h 34 minBit rate mode : ConstantBit rate : 1 509 kb/sChannel(s) : 6 channelsChannel layout : C L R Ls Rs LFESampling rate : 48.0 kHzFrame rate : 93.750 FPS (512 SPF)Bit depth : 24 bitsCompression mode : LossyStream size : 1.00 GiB (18%)Language : EnglishDefault : NoForced : NoText #1ID : 4Format : UTF-8Codec ID : S_TEXT/UTF8Codec ID/Info : UTF-8 Plain TextDuration : 1 h 27 minBit rate : 50 b/sCount of elements : 984Stream size : 32.3 KiB (0%)Title : EnglishLanguage : EnglishDefault : YesForced : YesText #2ID : 5Format : UTF-8Codec ID : S_TEXT/UTF8Codec ID/Info : UTF-8 Plain TextDuration : 1 h 30 minBit rate : 64 b/sCount of elements : 1429Stream size : 42.9 KiB (0%)Title : English dubtitlesLanguage : EnglishDefault : NoForced : NoText #3ID : 6Format : UTF-8Codec ID : S_TEXT/UTF8Codec ID/Info : UTF-8 Plain TextDuration : 1 h 30 minBit rate : 83 b/sCount of elements : 1956Stream size : 55.3 KiB (0%)Title : English dubtitles SDHLanguage : EnglishDefault : NoForced : NoMenu00:00:00.000 : en:00:00:00.00000:07:37.207 : en:00:07:37.20700:14:45.426 : en:00:14:45.42600:18:17.471 : en:00:18:17.47100:25:04.795 : en:00:25:04.79500:29:17.005 : en:00:29:17.00500:34:33.989 : en:00:34:33.98900:45:22.970 : en:00:45:22.97000:49:42.813 : en:00:49:42.81300:56:31.346 : en:00:56:31.34601:04:34.370 : en:01:04:34.37001:09:52.188 : en:01:09:52.18801:15:39.326 : en:01:15:39.32601:24:30.023 : en:01:24:30.02301:28:23.089 : en:01:28:23.089
[td][种子名称]:7.torrent[/td][td][下载地址]: http://www1.downsx.pw/torrent/5706AA9BC0395CEFB963DABFCA31A130D3127F93[/td][/td][/tr][/table]