[table=1661px][tr][td]◎译  名 罗马浴场 / Thermae Romae◎片  名 テルマエ?ロマエ◎年  代 2012◎产  地 日本 / 意大利◎类  别 喜剧 / 奇幻◎语  言 日语 / 拉丁语◎上映日期 2012-04-28(日本)◎IMDb评分 6.4/10 from 1871 users◎IMDb链接?http://www.imdb.com/title/tt1867101◎豆瓣评分 6.4/10 from 12025 users◎豆瓣链接 https://movie.douban.com/subject/6037517/◎片  长 108分钟◎导  演 武内英树 Hideki Takeuchi◎编  剧 武藤将吾 Shogo Muto◎主  演 阿部宽 Hiroshi Abe      上户彩 Aya Ueto      北村一辉 Kazuki Kitamura      市村正亲 Masachika Ichimura      宍戸開 Kai Shishido      竹内力 Riki Takeuchi      笹野高史 Takashi Sasano◎标  签 日本 | 阿部宽 | 日本片子 | 喜剧 | 上户彩 | 2012 | 北村一辉 | 片子◎简  介?  大约公元130年,强大繁华的罗马帝国正处在哈德良(市村正亲 饰)统治的时代,时下罗马人平易近洗澡之风风行,公共混堂更是受到广大平易近众的迎接。跟着豪华之风昂首,浴场设计师路西斯.慕德斯特(阿部宽 饰)那古朴简约的设计风格逐渐受到冷遇。某天,他不测经由过程公共浴场穿越到21世纪的日本 ,这群被路西斯称为扁脸族的人,其先辈立异汤文化令路西斯大为羞愧和赞叹。在此之后,他多次穿越时空,将日本浴室中的立异理念带到古罗马,他由此咸鱼翻身,大受迎接,甚至获得哈德良的赏识和重用。在此过程中,哈德良王朝落下帷幕,看似脆而不坚的凯奥尼乌斯(北村一辉 饰)成为新的皇帝。路西斯拒绝为凯奥尼乌斯设计浴室,他的命运来到了新的十字路口......本片根据漫画家山崎麻里的同名原著改编。◎获奖情况?  第36届日本片子学院奖(2013)  最佳男主角 阿部宽  最佳美术指导(提名) 原田满生
VideoID : 1Format : AVCFormat/Info : Advanced Video CodecFormat profile :?[url=mailto:[email protected]][email protected][/url]Format settings : CABAC / 4 Ref FramesFormat settings, CABAC : YesFormat settings, ReFrames : 4 framesCodec ID : V_MPEG4/ISO/AVCDuration : 1 h 48 minBit rate : 11.5 Mb/sWidth : 1 920 pixelsHeight : 816 pixelsDisplay aspect ratio : 2.35:1Frame rate mode : ConstantFrame rate : 23.976 (24000/1001) FPSColor space : YUVChroma subsampling : 4:2:0Bit depth : 8 bitsScan type : ProgressiveBits/(Pixel*Frame) : 0.306Stream size : 8.70 GiB (88%)Title : Thermae.Romae.2012.JAPANESE.1080p.BluRay.x264.DTS-FGTWriting library : x264 core 148 r2795M aaa9aa8Encoding settings : cabac=1 / ref=4 / deblock=1:-2:-2 / analyse=0x3:0x113 / me=umh / subme=9 / psy=1 / psy_rd=1.00:0.15 / mixed_ref=1 / me_range=16 / chroma_me=1 / trellis=2 / 8x8dct=1 / cqm=0 / deadzone=21,11 / fast_pskip=1 / chroma_qp_offset=-3 / threads=24 / lookahead_threads=3 / sliced_threads=0 / nr=0 / decimate=1 / interlaced=0 / bluray_compat=0 / constrained_intra=0 / bframes=3 / b_pyramid=2 / b_adapt=1 / b_bias=0 / direct=3 / weightb=1 / open_gop=0 / weightp=2 / keyint=250 / keyint_min=25 / scenecut=40 / intra_refresh=0 / rc_lookahead=50 / rc=2pass / mbtree=1 / bitrate=11500 / ratetol=1.0 / qcomp=0.60 / qpmin=0 / qpmax=69 / qpstep=4 / cplxblur=20.0 / qblur=0.5 / vbv_maxrate=31250 / vbv_bufsize=31250 / nal_hrd=none / filler=0 / ip_ratio=1.40 / aq=1:1.00Language : JapaneseDefault : YesForced : NoAudioID : 2Format : DTSFormat/Info : Digital Theater SystemsCodec ID : A_DTSDuration : 1 h 48 minBit rate mode : ConstantBit rate : 1 509 kb/sChannel(s) : 6 channelsChannel layout : C L R Ls Rs LFESampling rate : 48.0 kHzFrame rate : 93.750 FPS (512 SPF)Bit depth : 16 bitsCompression mode : LossyStream size : 1.14 GiB (12%)Title : Thermae.Romae.2012.JAPANESE.1080p.BluRay.x264.DTS-FGTLanguage : JapaneseDefault : YesForced : NoTextID : 3Format : UTF-8Codec ID : S_TEXT/UTF8Codec ID/Info : UTF-8 Plain TextDuration : 1 h 48 minBit rate : 38 b/sCount of elements : 1148Stream size : 30.5 KiB (0%)Language : EnglishDefault : YesForced : NoMenu00:00:00.000 : en:Chapter 0100:07:27.489 : en:Chapter 0200:15:48.239 : en:Chapter 0300:22:32.142 : en:Chapter 0400:34:43.957 : en:Chapter 0500:44:38.426 : en:Chapter 0600:53:46.932 : en:Chapter 0701:00:25.747 : en:Chapter 0801:08:46.205 : en:Chapter 0901:20:17.688 : en:Chapter 1001:29:34.578 : en:Chapter 1101:43:31.122 : en:Chapter 12
[td][种子名称]:6.torrent[/td][td][下载地址]: http://www1.downsx.pw/torrent/C701164483DA597AC08D6049300FA609830FBFC3[/td][/td][/tr][/table]