[table=1661px][tr][td]◎译  名 金银岛◎片  名 Treasure Island◎年  代 1950◎产  地 英国◎类  别 家庭 / 冒险◎语  言 英语◎上映日期 1952-01-10◎IMDb评分 7.0/10 from 6041 users◎IMDb链接?http://www.imdb.com/title/tt0043067◎豆瓣评分 6.7/10 from 170 users◎豆瓣链接 https://movie.douban.com/subject/1298102/◎片  长 96 分钟◎导  演 拜伦 哈斯金 (Byron Haskin)◎编  剧 Lawrence Edward Watkin / Robert Louis Stevenson◎主  演 鲍比.德里斯科尔 Bobby Driscoll      罗伯特.牛顿 Robert Newton      巴兹尔.悉尼 Basil Sydney      Walter Fitzgerald      Denis O'Dea◎标  签 冒险 | 美国片子 | 美国 | 金银岛 | 英国 | 海盗 | 秘境寻奇 | 悬疑◎简  介?  青少年冒险故事《金银岛》曾多次搬上银幕,本片是迪士尼公司摄制的版本。描述在十八世纪中英国少年吉姆从垂逝世海员彭斯手中获得传说中的藏宝岛,于本地乡绅增援下组织探险队前去金银岛。海盗头子约翰西尔弗应征船上厨师,一群手下也上船充当海员。达到金银岛时,吉姆碰到在荒岛上独处三年的海员班恩,而西尔弗则动员变节占据帆船。吉姆被提上帆船,危机时西尔弗竟出手相救,因而跟其他海盗产生抵触。最后李福西大夫与班恩合尴尬刁难于海盗,也成功取得宝藏。
VideoID : 1Format : AVCFormat/Info : Advanced Video CodecFormat profile :?[url=mailto:[email protected]][email protected][/url]Format settings, CABAC : YesFormat settings, ReFrames : 5 framesCodec ID : V_MPEG4/ISO/AVCDuration : 1h 35mnBit rate : 12.7 MbpsWidth : 1 488 pixelsHeight : 1 080 pixelsDisplay aspect ratio : 1.378Frame rate mode : ConstantFrame rate : 23.976 (24000/1001) fpsColor space : YUVChroma subsampling : 4:2:0Bit depth : 8 bitsScan type : ProgressiveBits/(Pixel*Frame) : 0.331Stream size : 8.36 GiB (96%)Writing library : x264 core 148 r2665 a01e339Encoding settings : cabac=1 / ref=5 / deblock=1:-3:-3 / analyse=0x3:0x113 / me=umh / subme=8 / psy=1 / psy_rd=1.00:0.00 / mixed_ref=1 / me_range=16 / chroma_me=1 / trellis=1 / 8x8dct=1 / cqm=0 / deadzone=21,11 / fast_pskip=1 / chroma_qp_offset=-2 / threads=24 / lookahead_threads=4 / sliced_threads=0 / nr=0 / decimate=1 / interlaced=0 / bluray_compat=0 / constrained_intra=0 / bframes=3 / b_pyramid=2 / b_adapt=2 / b_bias=0 / direct=3 / weightb=1 / open_gop=0 / weightp=2 / keyint=240 / keyint_min=24 / scenecut=40 / intra_refresh=0 / rc_lookahead=50 / rc=2pass / mbtree=1 / bitrate=12740 / ratetol=1.0 / qcomp=0.60 / qpmin=0 / qpmax=69 / qpstep=4 / cplxblur=20.0 / qblur=0.5 / ip_ratio=1.40 / aq=1:1.00Language : EnglishDefault : YesForced : NoStatistics Tags Issue : no_variable_data 1970-01-01 00:00:00 / no_variable_data 2010-02-22 21:41:29FromStats_BitRate : 12743084FromStats_Duration : 01:35:52.247000000FromStats_FrameCount : 137916FromStats_StreamSize : 9162671078AudioID : 2Format : AC-3Format/Info : Audio Coding 3Mode extension : CM (complete main)Format settings, Endianness : BigCodec ID : A_AC3Duration : 1h 35mnBit rate mode : ConstantBit rate : 320 KbpsChannel(s) : 2 channelsChannel positions : Front: L RSampling rate : 48.0 KHzFrame rate : 31.250 fps (1536 spf)Compression mode : LossyStream size : 220 MiB (2%)Language : EnglishDefault : YesForced : NoStatistics Tags Issue : no_variable_data 1970-01-01 00:00:00 / no_variable_data 2010-02-22 21:41:29FromStats_BitRate : 320000FromStats_Duration : 01:35:59.808000000FromStats_FrameCount : 179994FromStats_StreamSize : 230392320Text #1ID : 3Format : UTF-8Codec ID : S_TEXT/UTF8Codec ID/Info : UTF-8 Plain TextLanguage : EnglishDefault : NoForced : NoStatistics Tags Issue : no_variable_data 1970-01-01 00:00:00 / no_variable_data 2010-02-22 21:41:29FromStats_BitRate : 57FromStats_Duration : 01:32:32.254000000FromStats_FrameCount : 1045FromStats_StreamSize : 40214Text #2ID : 4Format : UTF-8Codec ID : S_TEXT/UTF8Codec ID/Info : UTF-8 Plain TextTitle : SDHLanguage : EnglishDefault : NoForced : NoStatistics Tags Issue : no_variable_data 1970-01-01 00:00:00 / no_variable_data 2010-02-22 21:41:29FromStats_BitRate : 60FromStats_Duration : 01:33:22.679000000FromStats_FrameCount : 1158FromStats_StreamSize : 42553Menu00:00:00.000 : en:00:00:00.00000:09:32.155 : en:00:09:32.15500:14:35.875 : en:00:14:35.87500:23:39.585 : en:00:23:39.58500:34:17.555 : en:00:34:17.55500:38:54.332 : en:00:38:54.33200:47:32.683 : en:00:47:32.68300:54:44.781 : en:00:54:44.78101:03:45.989 : en:01:03:45.98901:13:15.391 : en:01:13:15.39101:25:45.891 : en:01:25:45.89101:30:55.283 : en:01:30:55.283
[td][种子名称]:8.torrent[/td][td][下载地址]: http://www1.downsx.pw/torrent/EFD4C02F4105D4630D0B13D5E2CFE6F1D2BC5DB9[/td][/td][/tr][/table]