[table=1661px][tr][td]◎译  名 在魔鬼门前 / At the Devils Door / 鬼宅◎片  名 Home◎年  代 2014◎产  地 美国◎类  别 恐怖◎语  言 英语◎上映日期 2014-09-12◎IMDb评分 4.8/10 from 6549 users◎IMDb链接?http://www.imdb.com/title/tt2597242◎豆瓣评分 3.6/10 from 421 users◎豆瓣链接 https://movie.douban.com/subject/25699301/◎导  演 Nicholas McCarthy◎编  剧 Nicholas McCarthy◎主  演 娜雅.里维拉 Naya Rivera      阿什利.理查兹 Ashley Rickards      科林.伊格斯菲德 Colin Egglesfield◎标  签 恐怖 | 惊悚 | 美国 | 美国片子 | 烂片 | 灵异 | 2014 | 恐怖片◎简  介?  一幢待售的房子,交到了年青的女房产经纪莉手上,她在房里发清楚明了一个精力有些异样的女孩,她认为那是前任房主离家出走的女儿,便想伸出援手,谁知女孩似乎被一种超天然的力量控制,莉和她的艺术家姐姐薇拉,都难逃她的魔掌...
VideoID : 1Format : AVCFormat/Info : Advanced Video CodecFormat profile :?[url=mailto:[email protected]][email protected][/url]Format settings, CABAC : YesFormat settings, ReFrames : 5 framesCodec ID : V_MPEG4/ISO/AVCDuration : 1 h 33 minBit rate : 8 579 kb/sWidth : 1 920 pixelsHeight : 808 pixelsDisplay aspect ratio : 2.40:1Frame rate mode : ConstantFrame rate : 23.976 (24000/1001) FPSColor space : YUVChroma subsampling : 4:2:0Bit depth : 8 bitsScan type : ProgressiveBits/(Pixel*Frame) : 0.231Stream size : 5.57 GiB (85%)Writing library : x264 core 142 r2479 dd79a61Encoding settings : cabac=1 / ref=5 / deblock=1:0:0 / analyse=0x3:0x133 / me=umh / subme=7 / psy=1 / psy_rd=1.00:0.00 / mixed_ref=1 / me_range=16 / chroma_me=1 / trellis=1 / 8x8dct=1 / cqm=0 / deadzone=21,11 / fast_pskip=0 / chroma_qp_offset=-2 / threads=48 / lookahead_threads=6 / sliced_threads=0 / nr=0 / decimate=1 / interlaced=0 / bluray_compat=0 / constrained_intra=0 / bframes=3 / b_pyramid=2 / b_adapt=2 / b_bias=0 / direct=3 / weightb=1 / open_gop=0 / weightp=2 / keyint=250 / keyint_min=23 / scenecut=40 / intra_refresh=0 / rc_lookahead=50 / rc=2pass / mbtree=1 / bitrate=8579 / ratetol=1.0 / qcomp=0.60 / qpmin=0 / qpmax=69 / qpstep=4 / cplxblur=20.0 / qblur=0.5 / ip_ratio=1.40 / aq=1:1.00Language : EnglishDefault : YesForced : NoAudioID : 2Format : DTSFormat/Info : Digital Theater SystemsMode : 16Format settings, Endianness : BigCodec ID : A_DTSDuration : 1 h 33 minBit rate mode : ConstantBit rate : 1 509 kb/sChannel(s) : 6 channelsChannel positions : Front: L C R, Side: L R, LFESampling rate : 48.0 kHzFrame rate : 93.750 FPS (512 spf)Bit depth : 24 bitsCompression mode : LossyStream size : 1 004 MiB (15%)Default : YesForced : NoMenu00:00:00.000 : en:00:00:00.00000:08:20.417 : en:00:08:20.41700:14:50.389 : en:00:14:50.38900:23:52.973 : en:00:23:52.97300:33:21.458 : en:00:33:21.45800:40:58.373 : en:00:40:58.37300:48:10.846 : en:00:48:10.84600:57:21.146 : en:00:57:21.14601:05:17.413 : en:01:05:17.41301:15:43.956 : en:01:15:43.95601:21:50.030 : en:01:21:50.03001:28:27.135 : en:01:28:27.135
[td][种子名称]:10.torrent[/td][td][下载地址]: http://www1.downsx.pw/torrent/5E210B23F6A9153B6D507A4A4C6D0CADF2C82201[/td][/td][/tr][/table]