◎译  名 第二指令 / 铁血副官◎片  名 Second In Command◎年  代 2006◎产  地 美国 / 罗马尼亚◎类  别 动作 / 惊悚◎语  言 英语◎上映日期 2006-05-02◎IMDb评分 5.1/10 from 5921 users◎IMDb链接?http://www.imdb.com/title/tt0458471◎豆瓣评分 5.6/10 from 306 users◎豆瓣链接 https://movie.douban.com/subject/1767738/◎片  长 92 分钟◎导  演 西蒙.费尔罗斯 Simon Fellows◎主  演 尚格.云顿 Jean-Claude Van Damme      Julie Cox      William Tapley◎标  签 动作 | 美国 | 尚格.云顿 | 战斗 | 美国片子 | 2006 | 铁血副官 | 片子◎简  介?  尚格.云顿扮演美国大使的刚上任副官,使馆位于一个动荡不安的东欧小国. 当该国的兵变者妄图动员政变时, 国度总统躲在使馆请求卵翼. 于是兵器优良的兵变者把使馆团团包抄,更把大使屠戮,如今唯有依附尚格?云顿和使馆里的小批美国海军陆战队员来对于面前这些凶悍的仇敌了......
VideoID : 1Format : AVCFormat/Info : Advanced Video CodecFormat profile :?[url=mailto:[email protected]][email protected][/url]Format settings : CABAC / 4 Ref FramesFormat settings, CABAC : YesFormat settings, ReFrames : 4 framesCodec ID : V_MPEG4/ISO/AVCDuration : 1 h 31 minBit rate : 8 730 kb/sWidth : 1 920 pixelsHeight : 1 040 pixelsDisplay aspect ratio : 1.85:1Frame rate mode : ConstantFrame rate : 23.976 (24000/1001) FPSColor space : YUVChroma subsampling : 4:2:0Bit depth : 8 bitsScan type : ProgressiveBits/(Pixel*Frame) : 0.182Stream size : 5.46 GiB (83%)Writing library : x264 core 142 r2389 956c8d8Encoding settings : cabac=1 / ref=4 / deblock=1:0:0 / analyse=0x3:0x133 / me=umh / subme=8 / psy=1 / psy_rd=1.00:0.00 / mixed_ref=1 / me_range=16 / chroma_me=1 / trellis=1 / 8x8dct=1 / cqm=0 / deadzone=21,11 / fast_pskip=0 / chroma_qp_offset=-2 / threads=18 / lookahead_threads=3 / sliced_threads=0 / nr=0 / decimate=1 / interlaced=0 / bluray_compat=0 / constrained_intra=0 / bframes=3 / b_pyramid=2 / b_adapt=1 / b_bias=0 / direct=1 / weightb=1 / open_gop=0 / weightp=2 / keyint=250 / keyint_min=23 / scenecut=40 / intra_refresh=0 / rc_lookahead=40 / rc=2pass / mbtree=1 / bitrate=8730 / ratetol=1.0 / qcomp=0.60 / qpmin=0 / qpmax=69 / qpstep=4 / cplxblur=20.0 / qblur=0.5 / ip_ratio=1.40 / aq=1:1.00Language : EnglishDefault : YesForced : NoAudioID : 2Format : DTSFormat/Info : Digital Theater SystemsCodec ID : A_DTSDuration : 1 h 31 minBit rate mode : ConstantBit rate : 1 509 kb/sChannel(s) : 6 channelsChannel positions : Front: L C R, Side: L R, LFESampling rate : 48.0 kHzFrame rate : 93.750 FPS (512 SPF)Bit depth : 24 bitsCompression mode : LossyStream size : 990 MiB (15%)Default : YesForced : NoMenu00:00:00.000 : en:00:00:00.00000:07:41.836 : en:00:07:41.83600:14:12.560 : en:00:14:12.56000:20:36.735 : en:00:20:36.73500:27:47.165 : en:00:27:47.16500:35:23.705 : en:00:35:23.70500:42:06.023 : en:00:42:06.02300:48:52.555 : en:00:48:52.55500:56:09.741 : en:00:56:09.74101:08:11.421 : en:01:08:11.42101:11:42.715 : en:01:11:42.71501:17:25.266 : en:01:17:25.266
[种子名称]:5.torrent[下载地址]: http://www1.downsx.pw/torrent/4A9C156D29453D9E83B1C07C02D4FB7FFD8FFE33