[table=1661px][tr][td]◎译  名 异形魔怪5:血脉◎片  名 Tremors 5: Bloodline◎年  代 2015◎产  地 美国◎类  别 动作 / 科幻 / 恐怖◎语  言 英语◎上映日期 2015-10-06◎IMDb评分 5.3/10 from 5752 users◎IMDb链接?http://www.imdb.com/title/tt4180514◎豆瓣评分 5.2/10 from 1121 users◎豆瓣链接 https://movie.douban.com/subject/26582064/◎片  长 99分钟◎导  演 唐.迈克尔.保罗 Don Michael Paul◎编  剧 John Whelpley◎主  演 Michael Gross      杰米.肯尼迪 Jamie Kennedy      Ernest Ndhlovu      Lawrence Joffe      Zak Hendrikz      娜塔莉.贝克尔 Natalie Becker      Emmanuel Castis      布兰登.奥雷 Brandon Auret      Daniel Janks      Jarrod Pinto      Rea Rangaka      Ian Roberts      Sello Sebotsane      Pearl Thusi◎标  签 怪兽 | 科幻 | 恐怖 | 异形魔怪 | 美国 | 喜剧 | 惊悚 | 美国片子◎简  介?  故事講述求生專家柏特蓋默受雇到南非獵補兇猛的食人野獸,他有夥伴崔維斯威克的協助,將與怪獸開展一場逝世活對決大戰,然而這些受到進化影響的怪獸,完全超乎他們本来的想像。
VideoID : 1Format : AVCFormat/Info : Advanced Video CodecFormat profile :?[url=mailto:[email protected]][email protected][/url]Format settings, CABAC : YesFormat settings, ReFrames : 4 framesCodec ID : V_MPEG4/ISO/AVCDuration : 1h 39mnBit rate : 9 551 KbpsWidth : 1 920 pixelsHeight : 1 080 pixelsDisplay aspect ratio : 16:9Frame rate mode : ConstantFrame rate : 23.976 fpsColor space : YUVChroma subsampling : 4:2:0Bit depth : 8 bitsScan type : ProgressiveBits/(Pixel*Frame) : 0.192Stream size : 6.45 GiB (84%)Writing library : x264 core 148 r2597 e86f3a1Encoding settings : cabac=1 / ref=4 / deblock=1:0:0 / analyse=0x3:0x133 / me=umh / subme=7 / psy=1 / psy_rd=1.00:0.00 / mixed_ref=1 / me_range=16 / chroma_me=1 / trellis=1 / 8x8dct=1 / cqm=0 / deadzone=21,11 / fast_pskip=0 / chroma_qp_offset=-2 / threads=18 / lookahead_threads=3 / sliced_threads=0 / nr=0 / decimate=1 / interlaced=0 / bluray_compat=0 / constrained_intra=0 / bframes=3 / b_pyramid=2 / b_adapt=1 / b_bias=0 / direct=1 / weightb=1 / open_gop=0 / weightp=2 / keyint=250 / keyint_min=23 / scenecut=40 / intra_refresh=0 / rc_lookahead=40 / rc=2pass / mbtree=1 / bitrate=9551 / ratetol=1.0 / qcomp=0.60 / qpmin=0 / qpmax=69 / qpstep=4 / cplxblur=20.0 / qblur=0.5 / ip_ratio=1.40 / aq=1:1.00Language : EnglishDefault : YesForced : NoDURATION : 01:39:02.321000000NUMBER_OF_FRAMES : 142473NUMBER_OF_BYTES : 7090494881_STATISTICS_WRITING_APP : mkvmerge v8.3.0 (\'Over the Horizon\') 64bit_STATISTICS_WRITING_DATE_UTC : 2015-10-07 19:49:32_STATISTICS_TAGS : BPS DURATION NUMBER_OF_FRAMES NUMBER_OF_BYTESAudioID : 2Format : DTSFormat/Info : Digital Theater SystemsMode : 16Format settings, Endianness : BigCodec ID : A_DTSDuration : 1h 39mnBit rate mode : ConstantBit rate : 1 509 KbpsChannel(s) : 6 channelsChannel positions : Front: L C R, Side: L R, LFESampling rate : 48.0 KHzBit depth : 24 bitsCompression mode : LossyStream size : 1.04 GiB (14%)Language : EnglishDefault : YesForced : NoMenu00:00:00.000 : en:00:00:00.00000:06:52.537 : en:00:06:52.53700:12:43.179 : en:00:12:43.17900:17:19.247 : en:00:17:19.24700:21:48.724 : en:00:21:48.72400:26:34.426 : en:00:26:34.42600:31:01.777 : en:00:31:01.77700:36:38.905 : en:00:36:38.90500:39:13.309 : en:00:39:13.30900:46:36.919 : en:00:46:36.91900:52:46.038 : en:00:52:46.03800:58:57.534 : en:00:58:57.53401:04:00.587 : en:01:04:00.58701:08:57.967 : en:01:08:57.96701:13:14.974 : en:01:13:14.97401:16:14.445 : en:01:16:14.44501:21:47.027 : en:01:21:47.02701:27:58.857 : en:01:27:58.85701:31:51.756 : en:01:31:51.75601:34:11.729 : en:01:34:11.729
[td][种子名称]:8.torrent[/td][td][下载地址]: http://www1.downsx.pw/torrent/34C647514529AAAA28185AA2F7B4BCFAB3E1C7F4[/td][/td][/tr][/table]