[table=1661px][tr][td]◎译  名 异形大战忍者 / AvN◎片  名 AVN エイリアンVSニンジャ◎年  代 2010◎产  地 日本◎类  别 喜剧 / 动作 / 科幻◎语  言 日语◎上映日期 2011-07-23(日本)◎IMDb评分 4.3/10 from 2064 users◎IMDb链接?http://www.imdb.com/title/tt1592503◎豆瓣评分 3.7/10 from 635 users◎豆瓣链接 https://movie.douban.com/subject/4293347/◎片  长 80分钟◎导  演 千葉誠治◎编  剧 千葉誠治◎主  演 三元雅芸      柏原収史      土平ドンペイ      肘井美佳      小越勇輝      樋浦勉◎标  签 日本 | 动作 | 囧片 | 科幻 | 日本片子 | 烂片 | Cult | 2010◎简  介?  日本战国时代,分属不合大名的忍者集团也在暗处进行着角力。在一个月朗星稀的夜晚,伊贺忍者耶麻汰(三元雅芸 饰)、阵内(柏原收史 饰)、老鼠等人执谋杀探义务时不测与敌手相碰,时代天空中溘然飘过一个巨大的火球,令世人颇感不测。耶麻汰等回到村中后,在首级的指导下又去丛林中探查火球的本相。途中他们相逢同属一派的凛林(肘井美佳 饰)及其错误,世人结伴随行。成果在密林中,伊贺忍者们遭到不明生物的袭击。对方敏捷敏捷,杀伤力巨大,忍者们持续不断遇害。耶麻汰、阵内、凛林等人虽侥幸逃出,殊不知来自外星的异型正大力繁衍。一时光,伊贺村惨遭虐待,耶麻汰等也面对前所未有的挑衅......
VideoID : 1Format : AVCFormat/Info : Advanced Video CodecFormat profile :?[url=mailto:[email protected]][email protected][/url]Format settings : CABAC / 4 Ref FramesFormat settings, CABAC : YesFormat settings, ReFrames : 4 framesCodec ID : V_MPEG4/ISO/AVCDuration : 1 h 21 minBit rate : 15.5 Mb/sWidth : 1 920 pixelsHeight : 1 080 pixelsDisplay aspect ratio : 16:9Frame rate mode : ConstantFrame rate : 23.976 (24000/1001) FPSColor space : YUVChroma subsampling : 4:2:0Bit depth : 8 bitsScan type : ProgressiveBits/(Pixel*Frame) : 0.312Stream size : 8.78 GiB (91%)Title : Alien.Vs.Ninja.2010.JAPANESE.1080p.BluRay.x264.DTS-FGTWriting library : x264 core 157 r2935 545de2fEncoding settings : cabac=1 / ref=4 / deblock=1:-1:-1 / analyse=0x3:0x133 / me=umh / subme=10 / psy=1 / psy_rd=1.00:0.15 / mixed_ref=1 / me_range=48 / chroma_me=1 / trellis=2 / 8x8dct=1 / cqm=0 / deadzone=21,11 / fast_pskip=1 / chroma_qp_offset=-3 / threads=34 / lookahead_threads=5 / sliced_threads=0 / nr=0 / decimate=0 / interlaced=0 / bluray_compat=0 / constrained_intra=0 / bframes=8 / b_pyramid=2 / b_adapt=2 / b_bias=0 / direct=3 / weightb=1 / open_gop=0 / weightp=2 / keyint=250 / keyint_min=23 / scenecut=40 / intra_refresh=0 / rc_lookahead=60 / rc=crf / mbtree=1 / crf=17.0 / qcomp=0.60 / qpmin=0 / qpmax=69 / qpstep=4 / ip_ratio=1.40 / aq=1:1.00Language : JapaneseDefault : YesForced : NoAudioID : 2Format : DTSFormat/Info : Digital Theater SystemsCodec ID : A_DTSDuration : 1 h 21 minBit rate mode : ConstantBit rate : 1 509 kb/sChannel(s) : 6 channelsChannel layout : C L R Ls Rs LFESampling rate : 48.0 kHzFrame rate : 93.750 FPS (512 SPF)Bit depth : 16 bitsCompression mode : LossyStream size : 875 MiB (9%)Title : Alien.Vs.Ninja.2010.JAPANESE.1080p.BluRay.x264.DTS-FGTLanguage : JapaneseDefault : YesForced : NoTextID : 3Format : UTF-8Codec ID : S_TEXT/UTF8Codec ID/Info : UTF-8 Plain TextDuration : 1 h 14 minBit rate : 18 b/sCount of elements : 409Stream size : 9.83 KiB (0%)Language : EnglishDefault : YesForced : No
[td][种子名称]:7.torrent[/td][td][下载地址]: http://www1.downsx.pw/torrent/6D69395BB780DD0E8EBCB1EC3C691553CEF824CC[/td][/td][/tr][/table]